<?xml version="1.0" standalone="no"?>
<!DOCTYPE svg PUBLIC "-//W3C//DTD SVG 1.1//EN" "http://www.w3.org/Graphics/SVG/1.1/DTD/svg11.dtd" >
<svg xmlns="http://www.w3.org/2000/svg">
<metadata>Generated by IcoMoon</metadata>
<defs>
<font id="icomoon" horiz-adv-x="1024">
<font-face units-per-em="1024" ascent="960" descent="-64" />
<missing-glyph horiz-adv-x="1024" />
<glyph unicode="&#x20;" d="" horiz-adv-x="512" />
<glyph unicode="&#xe606;" d="M978.101 926.902c-28.77 28.768-67.018 44.611-107.701 44.611-40.685 0-78.933-15.843-107.701-44.611l-652.8-652.8c-2.645-2.645-4.678-5.837-5.957-9.354l-102.4-281.6c-3.4-9.347-1.077-19.818 5.957-26.85 4.885-4.888 11.43-7.499 18.104-7.499 2.933 0 5.891 0.502 8.744 1.541l281.6 102.4c3.515 1.28 6.709 3.312 9.354 5.958l652.8 652.8c28.768 28.768 44.613 67.018 44.613 107.702s-15.843 78.933-44.613 107.701zM293.114 98.917l-224.709-81.71 81.712 224.707 566.683 566.683 142.997-142.997-566.683-566.683zM941.899 747.702l-45.899-45.899-142.997 142.997 45.899 45.899c19.098 19.098 44.49 29.614 71.498 29.614s52.4-10.518 71.499-29.616c19.098-19.098 29.616-44.49 29.616-71.498s-10.52-52.4-29.616-71.498z" />
<glyph unicode="&#xe609;" d="M978.099 926.902c-28.768 28.768-67.016 44.611-107.699 44.611-40.685 0-78.933-15.843-107.699-44.611l-499.2-499.2c-2.645-2.645-4.678-5.837-5.957-9.357l-102.4-281.6c-3.4-9.347-1.077-19.818 5.957-26.848 4.885-4.89 11.43-7.501 18.104-7.501 2.933 0 5.891 0.501 8.744 1.541l281.6 102.4c3.515 1.28 6.709 3.312 9.354 5.96l499.2 499.2c28.766 28.768 44.614 67.018 44.614 107.702-0.003 40.686-15.846 78.934-44.618 107.702zM446.714 252.517l-224.709-81.71 81.712 224.706 413.083 413.085 142.997-142.997-413.083-413.083zM941.901 747.702l-45.901-45.899-142.997 142.997 45.901 45.899c19.096 19.098 44.488 29.614 71.496 29.614s52.4-10.518 71.501-29.616c19.096-19.098 29.614-44.49 29.614-71.498s-10.52-52.4-29.614-71.498zM896-51.2h-819.2c-42.347 0-76.8 34.451-76.8 76.8v819.2c0 42.347 34.453 76.8 76.8 76.8h512c14.139 0 25.6-11.462 25.6-25.6s-11.461-25.6-25.6-25.6h-512c-14.115 0-25.6-11.485-25.6-25.6v-819.2c0-14.115 11.485-25.6 25.6-25.6h819.2c14.115 0 25.6 11.485 25.6 25.6v512c0 14.138 11.461 25.6 25.6 25.6s25.6-11.462 25.6-25.6v-512c0-42.349-34.451-76.8-76.8-76.8z" />
<glyph unicode="&#xe62d;" d="M742.4 512h-25.6v76.8c0 127.043-103.357 230.4-230.4 230.4s-230.4-103.357-230.4-230.4v-76.8h-25.6c-42.347 0-76.8-34.453-76.8-76.8v-409.6c0-42.347 34.453-76.8 76.8-76.8h512c42.347 0 76.8 34.453 76.8 76.8v409.6c0 42.347-34.453 76.8-76.8 76.8zM307.2 588.8c0 98.811 80.389 179.2 179.2 179.2s179.2-80.389 179.2-179.2v-76.8h-358.4v76.8zM768 25.6c0-14.115-11.485-25.6-25.6-25.6h-512c-14.115 0-25.6 11.485-25.6 25.6v409.6c0 14.115 11.485 25.6 25.6 25.6h512c14.115 0 25.6-11.485 25.6-25.6v-409.6z" />
<glyph unicode="&#xe641;" d="M896 563.2h-819.2c-42.347 0-76.8-34.453-76.8-76.8v-460.8c0-42.349 34.453-76.8 76.8-76.8h819.2c42.349 0 76.8 34.451 76.8 76.8v460.8c0 42.347-34.451 76.8-76.8 76.8zM896 512c1.514 0 2.99-0.158 4.434-0.411l-385.632-257.090c-14.862-9.907-41.938-9.907-56.802 0l-385.634 257.090c1.443 0.253 2.92 0.411 4.434 0.411h819.2zM896 0h-819.2c-14.115 0-25.6 11.485-25.6 25.6v438.566l378.4-252.267c15.925-10.618 36.363-15.925 56.8-15.925s40.877 5.307 56.802 15.925l378.398 252.267v-438.566c0-14.115-11.485-25.6-25.6-25.6z" />
<glyph unicode="&#xe64e;" d="M947.2 614.4h-384c-4.386 0-12.189 4.822-14.152 8.747l-28.302 56.603c-10.56 21.122-36.331 37.050-59.946 37.050h-358.4c-23.614 0-49.386-15.928-59.946-37.048l-28.304-56.605c-8.067-16.136-14.15-41.907-14.15-59.947v-537.6c0-42.349 34.453-76.8 76.8-76.8h870.4c42.349 0 76.8 34.451 76.8 76.8v512c0 42.347-34.451 76.8-76.8 76.8zM972.8 25.6c0-14.115-11.485-25.6-25.6-25.6h-870.4c-14.115 0-25.6 11.485-25.6 25.6v537.6c0 10.053 4.25 28.058 8.746 37.048l28.304 56.605c1.962 3.925 9.765 8.747 14.15 8.747h358.4c4.386 0 12.189-4.822 14.152-8.747l28.302-56.603c10.562-21.122 36.331-37.050 59.946-37.050h384c14.115 0 25.6-11.485 25.6-25.6v-512z" />
<glyph unicode="&#xe66b;" d="M947.2-51.2h-870.4c-42.347 0-76.8 34.451-76.8 76.8v870.4c0 42.347 34.453 76.8 76.8 76.8h870.4c42.349 0 76.8-34.453 76.8-76.8v-870.4c0-42.349-34.451-76.8-76.8-76.8zM76.8 921.6c-14.115 0-25.6-11.485-25.6-25.6v-870.4c0-14.115 11.485-25.6 25.6-25.6h870.4c14.115 0 25.6 11.485 25.6 25.6v870.4c0 14.115-11.485 25.6-25.6 25.6h-870.4zM332.798 153.6c-4.080 0-8.171 0.973-11.915 2.944-8.416 4.424-13.683 13.15-13.683 22.656v563.2c0 9.507 5.267 18.23 13.682 22.656 8.414 4.427 18.589 3.826 26.421-1.562l409.6-281.6c6.947-4.774 11.098-12.664 11.098-21.094s-4.15-16.32-11.098-21.096l-409.6-281.6c-4.347-2.989-9.416-4.504-14.504-4.504zM358.4 693.733v-465.867l338.813 232.934-338.813 232.933z" />
<glyph unicode="&#xe678;" d="M512 358.4c-169.39 0-307.2 137.81-307.2 307.2s137.81 307.2 307.2 307.2 307.2-137.81 307.2-307.2-137.81-307.2-307.2-307.2zM512 921.6c-141.158 0-256-114.842-256-256s114.842-256 256-256c141.16 0 256 114.842 256 256s-114.84 256-256 256zM947.2-51.2h-870.4c-42.347 0-76.8 34.451-76.8 76.8 0 3.032 0.771 75.034 67.84 145.632 38.125 40.131 90.101 71.934 154.485 94.525 78.374 27.499 175.837 41.443 289.675 41.443s211.299-13.944 289.677-41.443c64.382-22.59 116.36-54.394 154.483-94.525 67.069-70.598 67.84-142.6 67.84-145.632 0-42.349-34.451-76.8-76.8-76.8zM512 256c-455.531 0-460.8-228.096-460.8-230.4 0-14.115 11.485-25.6 25.6-25.6h870.4c14.075 0 25.533 11.416 25.6 25.475-0.069 3.246-2.045 57.886-56.552 113.382-52.485 53.44-165.224 117.142-404.248 117.142z" />
<glyph unicode="&#xe681;" d="M384-4.33c-20.554 0-39.84 7.966-54.306 22.43l-260.394 260.395c-14.466 14.464-22.432 33.75-22.432 54.304s7.966 39.84 22.434 54.306l439.594 439.592c24.91 24.914 70.269 43.702 105.504 43.702h230.4c42.349 0 76.8-34.453 76.8-76.8v-230.4c0-35.232-18.787-80.59-43.699-105.504l-439.595-439.595c-14.466-14.466-33.752-22.43-54.306-22.43zM614.4 819.2c-21.246 0-54.278-13.682-69.299-28.704l-439.595-439.595c-4.795-4.795-7.435-11.224-7.435-18.101s2.64-13.306 7.435-18.099l260.394-260.397c4.795-4.794 11.224-7.434 18.101-7.434s13.307 2.64 18.102 7.435l439.594 439.592c15.021 15.024 28.704 48.058 28.704 69.302v230.4c0 14.115-11.485 25.6-25.6 25.6h-230.4zM742.4 614.4c-42.349 0-76.8 34.453-76.8 76.8s34.451 76.8 76.8 76.8 76.8-34.453 76.8-76.8-34.451-76.8-76.8-76.8zM742.4 716.8c-14.115 0-25.6-11.485-25.6-25.6s11.485-25.6 25.6-25.6 25.6 11.485 25.6 25.6-11.485 25.6-25.6 25.6z" />
<glyph unicode="&#xe682;" d="M793.6 512c-42.349 0-76.8 34.453-76.8 76.8s34.451 76.8 76.8 76.8 76.8-34.453 76.8-76.8-34.451-76.8-76.8-76.8zM793.6 614.4c-14.115 0-25.6-11.485-25.6-25.6s11.485-25.6 25.6-25.6 25.6 11.485 25.6 25.6-11.485 25.6-25.6 25.6zM896 768h-179.2c-35.235 0-80.594-18.789-105.504-43.701l-388.394-388.394c-14.466-14.466-22.434-33.752-22.434-54.306s7.966-39.84 22.432-54.304l133.234-133.234-56.078-32.378c-5.874-3.39-12.768-4.275-19.41-2.498-6.643 1.779-12.17 5.994-15.56 11.867l-184.125 318.914c-7.058 12.226-2.854 27.912 9.37 34.97l408.869 236.061c12.243 7.069 16.438 22.726 9.37 34.97-7.070 12.246-22.728 16.437-34.97 9.37l-408.869-236.058c-17.717-10.229-30.403-26.795-35.723-46.65s-2.616-40.544 7.613-58.262l184.126-318.915c10.229-17.717 26.795-30.403 46.65-35.723 6.651-1.781 13.397-2.664 20.093-2.664 13.291 0 26.389 3.475 38.17 10.277l67.96 39.237 38.477-38.478c14.466-14.466 33.75-22.432 54.306-22.432s39.84 7.966 54.304 22.432l388.395 388.395c24.912 24.914 43.699 70.27 43.699 105.504v179.2c0 42.347-34.451 76.8-76.8 76.8zM921.6 512c0-21.246-13.683-54.278-28.704-69.301l-388.395-388.395c-4.795-4.794-11.224-7.434-18.101-7.434s-13.307 2.64-18.101 7.434l-209.194 209.197c-4.795 4.794-7.435 11.222-7.435 18.099s2.64 13.306 7.435 18.101l388.395 388.394c15.021 15.024 48.053 28.706 69.299 28.706h179.2c14.115 0 25.6-11.485 25.6-25.6v-179.2z" />
<glyph unicode="&#xe688;" d="M819.2-51.2c-90.691 0-187.154 25.699-286.706 76.386-91.794 46.736-182.48 113.654-262.258 193.522-79.763 79.853-146.595 170.624-193.272 262.498-50.608 99.61-76.269 196.102-76.269 286.795 0 58.774 54.765 115.55 78.31 137.232 33.85 31.17 87.104 67.568 125.794 67.568 19.245 0 41.803-12.589 70.994-39.616 21.782-20.17 46.27-47.51 70.814-79.067 14.794-19.021 88.592-116.267 88.592-162.917 0-38.27-43.25-64.853-89.037-92.998-17.694-10.875-35.992-22.122-49.226-32.73-14.114-11.315-16.645-17.288-17.061-18.629 48.602-121.128 197.141-269.651 318.203-318.184 1.085 0.341 7.067 2.699 18.592 17.075 10.608 13.234 21.854 31.531 32.73 49.227 28.144 45.789 54.726 89.038 92.998 89.038 46.648 0 143.896-73.798 162.917-88.592 31.557-24.546 58.898-49.032 79.067-70.816 27.029-29.189 39.616-51.747 39.616-70.992 0-38.701-36.378-92.115-67.528-126.099-21.693-23.662-78.491-78.701-137.272-78.701zM204.477 921.597c-13.731-0.262-50.634-17.054-90.789-54.029-38.115-35.099-61.792-73.25-61.792-99.568 0-344.523 423.093-768 767.304-768 26.28 0 64.418 23.795 99.528 62.099 37.003 40.366 53.806 77.413 54.069 91.178-1.662 9.728-28.57 47.563-102.232 104.283-63.322 48.762-114.699 74.886-127.901 75.237-0.925-0.274-6.656-2.467-18.277-17.222-10.104-12.832-20.912-30.418-31.366-47.424-28.683-46.666-55.774-90.744-95.122-90.744-6.336 0-12.597 1.219-18.608 3.624-134.376 53.75-293.31 212.685-347.061 347.061-6.456 16.138-7.485 41.414 24.272 70.184 16.882 15.293 40.25 29.656 62.848 43.546 17.006 10.453 34.59 21.261 47.422 31.366 14.755 11.619 16.95 17.352 17.222 18.277-0.352 13.203-26.475 64.579-75.237 127.902-56.72 73.659-94.554 100.568-104.282 102.23z" />
<glyph unicode="&#xe689;" d="M916.19 414.891c-53.283-0.002-149.901 19.214-180.016 49.326-18.466 18.466-22.854 41.64-26.381 60.262-4.344 22.931-6.95 29.755-17.010 34.077-46.194 19.853-112.456 31.238-181.8 31.238-68.621 0-134.16-11.189-179.81-30.699-9.939-4.248-12.499-11.050-16.741-33.938-3.459-18.672-7.765-41.91-26.234-60.381-16.814-16.813-51.976-28.36-78.512-35.086-34.218-8.674-70.85-13.646-100.502-13.646-33.982 0-56.965 6.461-70.258 19.755-20.021 20.019-32.797 47.4-35.050 75.12-1.901 23.365 2.6 57.979 34.824 90.205 52.315 52.315 122.699 93.11 209.195 121.253 79.549 25.882 170.093 39.562 261.842 39.562 92.378 0 183.67-13.848 264.006-40.048 87.304-28.472 158.35-69.688 211.163-122.499 53.766-53.765 40.451-125.102 0.629-164.928-13.173-13.17-35.856-19.571-69.347-19.573zM510.986 640.995c77.157 0 148.901-12.571 202.014-35.398 36.51-15.69 42.632-48 47.099-71.59 2.672-14.104 4.979-26.285 12.28-33.586 12.915-12.914 87.362-34.331 143.811-34.33 24.638 0 32.398 4.219 33.4 4.835 15.851 16.061 35.757 55.621-0.885 92.261-92.392 92.392-256.493 147.552-438.966 147.552-180.973 0-343.526-54.51-434.832-145.818-14.76-14.76-21.488-31.533-19.998-49.853 1.258-15.462 8.72-31.445 19.986-42.827 0.965-0.606 8.846-5 34.291-5 56.242 0 130.12 21.048 142.811 33.738 7.226 7.227 9.482 19.403 12.094 33.502 4.382 23.659 10.386 56.061 46.963 71.691 52.538 22.456 123.541 34.822 199.931 34.822zM844.8-51.2h-665.6c-34.347 0-66.043 13.509-89.248 38.040-23.206 24.531-34.936 56.928-33.032 91.222 0.218 3.928 6.024 97.307 65.029 191.453 34.904 55.694 81.181 100.088 137.541 131.946 69.658 39.374 154.613 59.339 252.51 59.339s182.853-19.965 252.509-59.339c56.363-31.858 102.637-76.251 137.542-131.946 59.005-94.146 64.811-187.525 65.030-191.453 1.904-34.296-9.827-66.691-33.034-91.222s-54.901-38.040-89.248-38.040zM512 409.6c-159.592 0-275.859-55.696-345.574-165.541-52.726-83.077-58.336-168.038-58.387-168.888-1.114-20.050 5.67-38.942 19.107-53.146s31.923-22.026 52.054-22.026h665.6c20.131 0 38.618 7.822 52.054 22.027 13.435 14.203 20.222 33.096 19.104 53.195-0.046 0.798-5.658 85.762-58.384 168.837-69.715 109.845-185.984 165.541-345.574 165.541zM512 51.2c-84.696 0-153.6 68.904-153.6 153.6s68.904 153.6 153.6 153.6 153.6-68.904 153.6-153.6-68.904-153.6-153.6-153.6zM512 307.2c-56.464 0-102.4-45.936-102.4-102.4s45.936-102.4 102.4-102.4c56.464 0 102.4 45.936 102.4 102.4s-45.936 102.4-102.4 102.4z" />
<glyph unicode="&#xe68b;" d="M512-51.2c-7.856 0-15.277 3.606-20.13 9.784-2.931 3.73-72.587 92.864-143.229 224.51-41.581 77.491-74.742 153.568-98.565 226.118-30.043 91.499-45.277 177.758-45.277 256.387 0 169.39 137.81 307.2 307.2 307.2s307.2-137.81 307.2-307.2c0-78.629-15.234-164.888-45.278-256.386-23.822-72.55-56.984-148.629-98.565-226.118-70.64-131.646-140.298-220.781-143.229-224.51-4.851-6.179-12.272-9.786-20.128-9.786zM512 921.6c-141.158 0-256-114.842-256-256 0-166.597 74.914-341.176 137.758-458.296 46.186-86.074 92.634-154.306 118.237-189.938 25.709 35.789 72.429 104.432 118.688 190.76 62.643 116.902 137.317 291.163 137.317 457.474 0 141.158-114.84 256-256 256zM512 512c-84.696 0-153.6 68.904-153.6 153.6s68.904 153.6 153.6 153.6 153.6-68.904 153.6-153.6-68.904-153.6-153.6-153.6zM512 768c-56.464 0-102.4-45.936-102.4-102.4s45.936-102.4 102.4-102.4c56.464 0 102.4 45.936 102.4 102.4s-45.936 102.4-102.4 102.4z" />
<glyph unicode="&#xe690;" d="M947.2 819.2h-128v25.6c0 14.138-11.461 25.6-25.6 25.6s-25.6-11.462-25.6-25.6v-25.6h-512v25.6c0 14.138-11.462 25.6-25.6 25.6s-25.6-11.462-25.6-25.6v-25.6h-128c-42.347 0-76.8-34.453-76.8-76.8v-716.8c0-42.349 34.453-76.8 76.8-76.8h870.4c42.349 0 76.8 34.451 76.8 76.8v716.8c0 42.347-34.451 76.8-76.8 76.8zM76.8 768h128v-76.8c0-14.138 11.462-25.6 25.6-25.6s25.6 11.462 25.6 25.6v76.8h512v-76.8c0-14.138 11.461-25.6 25.6-25.6s25.6 11.462 25.6 25.6v76.8h128c14.115 0 25.6-11.485 25.6-25.6v-128h-921.6v128c0 14.115 11.485 25.6 25.6 25.6zM947.2 0h-870.4c-14.115 0-25.6 11.485-25.6 25.6v537.6h921.6v-537.6c0-14.115-11.485-25.6-25.6-25.6z" />
<glyph unicode="&#xe6ab;" d="M25.6 0c-11.507 0-21.6 7.677-24.67 18.766s1.634 22.864 11.501 28.784c86.57 51.942 122.485 127.414 135.218 162.755-94.088 72.048-147.648 171.746-147.648 276.094 0 52.704 13.23 103.755 39.323 151.736 24.902 45.794 60.406 86.806 105.526 121.899 91.504 71.17 212.802 110.365 341.55 110.365s250.046-39.195 341.552-110.366c45.118-35.093 80.624-76.104 105.526-121.899 26.091-47.979 39.322-99.030 39.322-151.734 0-52.702-13.23-103.755-39.322-151.736-24.902-45.794-60.408-86.806-105.526-121.899-91.506-71.17-212.803-110.365-341.552-110.365-52.907 0-104.8 6.627-154.437 19.707-21.974-14.637-63.040-40.605-112.086-65.005-76.163-37.89-141.528-57.102-194.277-57.102zM486.4 819.2c-239.97 0-435.2-149.294-435.2-332.8 0-92.946 51.432-182.379 141.107-245.368 8.797-6.178 12.795-17.194 10.013-27.576-5.984-22.325-26.363-83.597-80.878-142.734 66.659 23.341 138.424 63.832 191.434 100.286 6.296 4.328 14.197 5.621 21.544 3.52 48.558-13.888 99.691-20.928 151.981-20.928 239.97 0 435.2 149.294 435.2 332.8s-195.23 332.8-435.2 332.8z" />
<glyph unicode="&#xe6ae;" d="M230.4 409.6c-47.301 0-91.314-14.336-127.936-38.88 66.426 114.955 190.696 192.48 332.736 192.48 14.138 0 25.6 11.462 25.6 25.6s-11.462 25.6-25.6 25.6c-116.246 0-225.534-45.269-307.733-127.467s-127.467-191.488-127.467-307.733c0-127.043 103.357-230.4 230.4-230.4s230.4 103.357 230.4 230.4-103.357 230.4-230.4 230.4zM230.4 0c-98.811 0-179.2 80.389-179.2 179.2 0 1.546 0.040 3.080 0.059 4.621 2.459 96.683 81.874 174.579 179.141 174.579 98.811 0 179.2-80.389 179.2-179.2s-80.389-179.2-179.2-179.2zM793.6 409.6c-47.301 0-91.314-14.336-127.936-38.88 66.426 114.957 190.696 192.48 332.736 192.48 14.139 0 25.6 11.462 25.6 25.6s-11.461 25.6-25.6 25.6c-116.245 0-225.534-45.269-307.733-127.467s-127.467-191.488-127.467-307.733c0-127.043 103.357-230.4 230.4-230.4s230.4 103.357 230.4 230.4-103.357 230.4-230.4 230.4zM793.6 0c-98.811 0-179.2 80.389-179.2 179.2 0 1.546 0.040 3.080 0.059 4.621 2.459 96.683 81.875 174.579 179.141 174.579 98.811 0 179.2-80.389 179.2-179.2s-80.389-179.2-179.2-179.2z" />
<glyph unicode="&#xe6af;" d="M230.4 153.6c47.301 0 91.314 14.336 127.936 38.88-66.426-114.957-190.696-192.48-332.736-192.48-14.139 0-25.6-11.462-25.6-25.6s11.461-25.6 25.6-25.6c116.245 0 225.534 45.269 307.733 127.467s127.467 191.488 127.467 307.733c0 127.043-103.357 230.4-230.4 230.4s-230.4-103.357-230.4-230.4 103.357-230.4 230.4-230.4zM230.4 563.2c98.811 0 179.2-80.389 179.2-179.2 0-1.546-0.040-3.080-0.059-4.621-2.459-96.683-81.875-174.579-179.141-174.579-98.811 0-179.2 80.389-179.2 179.2s80.389 179.2 179.2 179.2zM588.8 0c-14.138 0-25.6-11.462-25.6-25.6s11.462-25.6 25.6-25.6c116.246 0 225.534 45.269 307.733 127.467s127.467 191.488 127.467 307.733c0 127.043-103.357 230.4-230.4 230.4s-230.4-103.357-230.4-230.4 103.357-230.4 230.4-230.4c47.301 0 91.312 14.336 127.936 38.88-66.426-114.955-190.696-192.48-332.736-192.48zM793.6 204.8c-98.811 0-179.2 80.389-179.2 179.2s80.389 179.2 179.2 179.2 179.2-80.389 179.2-179.2c0-1.546-0.040-3.080-0.059-4.621-2.459-96.683-81.875-174.579-179.141-174.579z" />
<glyph unicode="&#xe742;" d="M256-51.2c-6.552 0-13.102 2.499-18.101 7.499l-204.8 204.8c-9.998 9.997-9.998 26.206 0 36.203l204.8 204.8c9.997 9.997 26.206 9.997 36.203 0 9.998-9.997 9.998-26.206 0-36.203l-186.699-186.699 186.698-186.699c9.998-9.997 9.998-26.206 0-36.203-4.998-4.998-11.549-7.498-18.101-7.498zM768-51.2c-6.552 0-13.102 2.499-18.101 7.499-9.998 9.997-9.998 26.206 0 36.203l186.698 186.698-186.698 186.699c-9.998 9.997-9.998 26.206 0 36.203 9.997 9.997 26.206 9.997 36.203 0l204.8-204.8c9.998-9.997 9.998-26.206 0-36.203l-204.8-204.8c-5-5-11.55-7.499-18.102-7.499zM383.976-51.203c-4.634 0-9.325 1.258-13.544 3.894-11.989 7.494-15.634 23.288-8.141 35.278l256 409.6c7.493 11.984 23.283 15.634 35.278 8.141 11.989-7.494 15.634-23.288 8.141-35.278l-256-409.6c-4.858-7.77-13.202-12.035-21.734-12.035z" />
<glyph unicode="&#xe743;" d="M914.101 683.701l-230.4 230.4c-4.8 4.802-11.312 7.499-18.101 7.499h-486.4c-42.347 0-76.8-34.453-76.8-76.8v-819.2c0-42.349 34.453-76.8 76.8-76.8h665.6c42.349 0 76.8 34.451 76.8 76.8v640c0 6.79-2.698 13.301-7.499 18.101zM859.797 665.6h-168.597c-14.115 0-25.6 11.485-25.6 25.6v168.597l194.197-194.197zM844.8 0h-665.6c-14.115 0-25.6 11.485-25.6 25.6v819.2c0 14.115 11.485 25.6 25.6 25.6h435.2v-179.2c0-42.347 34.451-76.8 76.8-76.8h179.2v-588.8c0-14.115-11.485-25.6-25.6-25.6zM358.4 102.4c-6.552 0-13.102 2.499-18.102 7.499l-102.4 102.4c-9.997 9.997-9.997 26.206 0 36.203l102.4 102.4c9.998 9.997 26.206 9.997 36.205 0 9.997-9.997 9.997-26.206 0-36.203l-84.299-84.299 84.299-84.299c9.997-9.997 9.997-26.206 0-36.203-5-4.998-11.55-7.498-18.102-7.498zM486.422 102.394c-1.89 0-3.806 0.211-5.726 0.65-13.782 3.15-22.403 16.877-19.254 30.659l46.8 204.8c3.15 13.784 16.875 22.402 30.661 19.253 13.782-3.15 22.403-16.877 19.253-30.659l-46.8-204.8c-2.709-11.862-13.258-19.902-24.933-19.902zM665.6 102.4c-6.552 0-13.102 2.499-18.101 7.499-9.998 9.997-9.998 26.206 0 36.203l84.296 84.298-84.298 84.299c-9.998 9.997-9.998 26.206 0 36.203 9.997 9.997 26.206 9.997 36.203 0l102.4-102.4c9.998-9.997 9.998-26.206 0-36.203l-102.4-102.4c-4.998-5-11.549-7.499-18.101-7.499z" />
<glyph unicode="&#xe744;" d="M914.101 683.701l-230.4 230.4c-4.8 4.802-11.312 7.499-18.101 7.499h-486.4c-42.347 0-76.8-34.453-76.8-76.8v-819.2c0-42.349 34.453-76.8 76.8-76.8h665.6c42.349 0 76.8 34.451 76.8 76.8v640c0 6.79-2.698 13.301-7.499 18.101zM859.797 665.6h-168.597c-14.115 0-25.6 11.485-25.6 25.6v168.597l194.197-194.197zM844.8 0h-665.6c-14.115 0-25.6 11.485-25.6 25.6v819.2c0 14.115 11.485 25.6 25.6 25.6h435.2v-179.2c0-42.347 34.451-76.8 76.8-76.8h179.2v-588.8c0-14.115-11.485-25.6-25.6-25.6zM742.406 102.4c-6.898 0-13.77 2.768-18.818 8.235l-272.472 295.179c-4.211 4.563-9.498 7.002-15.034 6.92-5.482-0.101-10.726-2.754-14.768-7.469l-120.28-140.326c-9.2-10.734-25.362-11.974-36.098-2.776-10.734 9.202-11.978 25.363-2.776 36.099l120.28 140.326c13.486 15.734 32.696 24.97 52.699 25.338 20.029 0.366 39.539-8.155 53.597-23.382l272.472-295.178c9.59-10.389 8.942-26.584-1.446-36.174-4.922-4.547-11.147-6.792-17.357-6.792zM691.2 358.4c-42.349 0-76.8 34.451-76.8 76.8 0 42.347 34.451 76.8 76.8 76.8s76.8-34.453 76.8-76.8c0-42.349-34.451-76.8-76.8-76.8zM691.2 460.8c-14.115 0-25.6-11.485-25.6-25.6s11.485-25.6 25.6-25.6 25.6 11.485 25.6 25.6-11.485 25.6-25.6 25.6z" />
<glyph unicode="&#xe745;" d="M914.101 683.701l-230.4 230.4c-4.8 4.802-11.312 7.499-18.101 7.499h-486.4c-42.347 0-76.8-34.453-76.8-76.8v-819.2c0-42.349 34.453-76.8 76.8-76.8h665.6c42.349 0 76.8 34.451 76.8 76.8v640c0 6.79-2.698 13.301-7.499 18.101zM859.797 665.6h-168.597c-14.115 0-25.6 11.485-25.6 25.6v168.597l194.197-194.197zM844.8 0h-665.6c-14.115 0-25.6 11.485-25.6 25.6v819.2c0 14.115 11.485 25.6 25.6 25.6h435.2v-179.2c0-42.347 34.451-76.8 76.8-76.8h179.2v-588.8c0-14.115-11.485-25.6-25.6-25.6zM332.8 768h-51.2c-14.138 0-25.6 11.462-25.6 25.6s11.462 25.6 25.6 25.6h51.2c14.138 0 25.6-11.462 25.6-25.6s-11.462-25.6-25.6-25.6zM384 716.8h-51.2c-14.138 0-25.6 11.462-25.6 25.6s11.462 25.6 25.6 25.6h51.2c14.138 0 25.6-11.462 25.6-25.6s-11.462-25.6-25.6-25.6zM332.8 665.6h-51.2c-14.138 0-25.6 11.462-25.6 25.6s11.462 25.6 25.6 25.6h51.2c14.138 0 25.6-11.462 25.6-25.6s-11.462-25.6-25.6-25.6zM384 614.4h-51.2c-14.138 0-25.6 11.462-25.6 25.6s11.462 25.6 25.6 25.6h51.2c14.138 0 25.6-11.462 25.6-25.6s-11.462-25.6-25.6-25.6zM332.8 563.2h-51.2c-14.138 0-25.6 11.462-25.6 25.6s11.462 25.6 25.6 25.6h51.2c14.138 0 25.6-11.462 25.6-25.6s-11.462-25.6-25.6-25.6zM384 512h-51.2c-14.138 0-25.6 11.462-25.6 25.6s11.462 25.6 25.6 25.6h51.2c14.138 0 25.6-11.462 25.6-25.6s-11.462-25.6-25.6-25.6zM332.8 460.8c-42.347 0-76.8-34.451-76.8-76.8v-204.8c0-42.349 34.453-76.8 76.8-76.8s76.8 34.451 76.8 76.8v204.8c0 42.349-34.453 76.8-76.8 76.8zM332.8 409.6c14.115 0 25.6-11.485 25.6-25.6v-25.6h-51.2v25.6c0 14.115 11.485 25.6 25.6 25.6zM332.8 153.6c-14.115 0-25.6 11.485-25.6 25.6v128h51.2v-128c0-14.115-11.485-25.6-25.6-25.6zM384 819.2h-51.2c-14.138 0-25.6 11.462-25.6 25.6s11.462 25.6 25.6 25.6h51.2c14.138 0 25.6-11.462 25.6-25.6s-11.462-25.6-25.6-25.6zM332.8 460.8h-51.2c-14.138 0-25.6 11.462-25.6 25.6s11.462 25.6 25.6 25.6h51.2c14.138 0 25.6-11.462 25.6-25.6s-11.462-25.6-25.6-25.6z" />
<glyph unicode="&#xe746;" d="M914.101 683.701l-230.4 230.4c-4.8 4.802-11.312 7.499-18.101 7.499h-486.4c-42.347 0-76.8-34.453-76.8-76.8v-819.2c0-42.349 34.453-76.8 76.8-76.8h665.6c42.349 0 76.8 34.451 76.8 76.8v640c0 6.79-2.698 13.301-7.499 18.101zM859.797 665.6h-168.597c-14.115 0-25.6 11.485-25.6 25.6v168.597l194.197-194.197zM844.8 0h-665.6c-14.115 0-25.6 11.485-25.6 25.6v819.2c0 14.115 11.485 25.6 25.6 25.6h435.2v-179.2c0-42.347 34.451-76.8 76.8-76.8h179.2v-588.8c0-14.115-11.485-25.6-25.6-25.6zM435.203 102.366c-5.709 0-11.368 1.907-15.998 5.611l-120.987 96.806h-16.618c-14.138 0-25.6 11.461-25.6 25.6v102.4c0 14.139 11.462 25.6 25.6 25.6h16.619l120.989 96.794c7.685 6.146 18.21 7.346 27.082 3.083 8.869-4.262 14.51-13.234 14.51-23.074v-307.221c0-9.84-5.642-18.811-14.51-23.074-3.526-1.696-7.318-2.526-11.086-2.526zM307.2 255.982c5.814 0 11.454-1.979 15.994-5.611l86.406-69.138v200.686l-86.408-69.128c-4.539-3.632-10.179-5.61-15.992-5.61v-51.2zM600.872 153.592c-6.078 0-12.179 2.152-17.066 6.526-10.534 9.43-11.43 25.614-1.998 36.149 21.018 23.478 32.592 53.784 32.592 85.333s-11.573 61.851-32.59 85.331c-9.43 10.534-8.534 26.718 2.002 36.149 10.534 9.429 26.717 8.533 36.149-2.002 29.43-32.88 45.64-75.312 45.64-119.478 0-44.168-16.211-86.602-45.645-119.483-5.056-5.648-12.054-8.525-19.083-8.525zM691.182 102.381c-5.352 0-10.749 1.672-15.357 5.134-11.304 8.493-13.582 24.541-5.091 35.843 30.138 40.114 46.066 87.915 46.066 138.242 0 50.32-15.923 98.118-46.050 138.229-8.493 11.306-6.211 27.354 5.094 35.843 11.306 8.493 27.355 6.21 35.843-5.094 36.84-49.048 56.312-107.478 56.312-168.978 0-61.506-19.478-119.944-56.33-168.994-5.030-6.696-12.71-10.226-20.488-10.226zM530.723 230.389c-4.354 0-8.763 1.11-12.802 3.448-12.235 7.083-16.414 22.746-9.331 34.981 2.262 3.907 3.41 8.208 3.41 12.781 0 4.571-1.147 8.874-3.41 12.782-7.082 12.237-2.902 27.899 9.333 34.981 12.237 7.080 27.898 2.902 34.981-9.334 6.734-11.637 10.296-24.926 10.296-38.427s-3.562-26.794-10.298-38.432c-4.744-8.198-13.342-12.779-22.179-12.779z" />
<glyph unicode="&#xe747;" d="M914.101 683.701l-230.4 230.4c-4.8 4.802-11.312 7.499-18.101 7.499h-486.4c-42.347 0-76.8-34.453-76.8-76.8v-819.2c0-42.349 34.453-76.8 76.8-76.8h665.6c42.349 0 76.8 34.451 76.8 76.8v640c0 6.79-2.698 13.301-7.499 18.101zM859.797 665.6h-168.597c-14.115 0-25.6 11.485-25.6 25.6v168.597l194.197-194.197zM844.8 0h-665.6c-14.115 0-25.6 11.485-25.6 25.6v819.2c0 14.115 11.485 25.6 25.6 25.6h435.2v-179.2c0-42.347 34.451-76.8 76.8-76.8h179.2v-588.8c0-14.115-11.485-25.6-25.6-25.6zM727.014 101.562c-13.254-0.002-26.35 6.37-38.918 18.941l-73.696 73.694v-14.997c0-42.349-34.451-76.8-76.8-76.8h-204.8c-42.347 0-76.8 34.451-76.8 76.8v204.8c0 42.349 34.453 76.8 76.8 76.8h204.8c42.349 0 76.8-34.451 76.8-76.8v-14.997l73.696 73.696c12.566 12.568 25.661 18.941 38.915 18.941 20.403 0 40.989-16.091 40.989-52.040v-256c0-35.946-20.586-52.037-40.986-52.038zM332.8 409.6c-14.115 0-25.6-11.485-25.6-25.6v-204.8c0-14.115 11.485-25.6 25.6-25.6h204.8c14.115 0 25.6 11.485 25.6 25.6v25.6c0 35.949 20.586 52.038 40.989 52.038 13.254 0 26.349-6.371 38.915-18.941l73.696-73.696v234.795l-73.696-73.696c-12.566-12.568-25.661-18.941-38.915-18.941-20.403 0.002-40.989 16.091-40.989 52.040v25.6c0 14.115-11.485 25.6-25.6 25.6h-204.8z" />
<glyph unicode="&#xe74b;" d="M546.917 256.088c-48.275 0-96.55 18.376-133.301 55.128-9.998 9.997-9.998 26.206 0 36.203s26.205 9.997 36.203 0c53.539-53.541 140.656-53.541 194.197 0l186.166 186.166c53.539 53.539 53.539 140.656 0 194.197-53.541 53.539-140.656 53.538-194.197 0l-157.082-157.083c-9.998-9.997-26.206-9.997-36.203 0-9.998 9.998-9.998 26.206 0 36.205l157.083 157.083c73.502 73.501 193.101 73.501 266.603 0s73.502-193.101 0-266.603l-186.168-186.168c-36.752-36.752-85.027-55.128-133.302-55.128zM239.717-51.112c-48.275 0-96.55 18.376-133.302 55.128-73.501 73.502-73.501 193.101 0 266.603l186.166 186.166c73.501 73.501 193.101 73.501 266.603 0 9.998-9.998 9.998-26.206 0-36.203-9.997-9.998-26.206-9.998-36.203 0-53.541 53.541-140.656 53.541-194.197 0l-186.165-186.166c-53.539-53.541-53.539-140.656 0-194.197s140.656-53.541 194.195 0l157.083 157.083c9.997 9.997 26.206 9.997 36.203 0 9.998-9.997 9.998-26.206 0-36.203l-157.083-157.083c-36.75-36.752-85.026-55.128-133.301-55.128z" />
<glyph unicode="&#xe75f;" d="M0 204.8c0-6.552 2.499-13.102 7.499-18.101 9.997-9.998 26.206-9.998 36.203 0l442.698 442.698 442.699-442.698c9.997-9.998 26.206-9.998 36.203 0s9.998 26.206 0 36.203l-460.8 460.8c-9.997 9.998-26.206 9.998-36.203 0l-460.8-460.8c-5-5-7.499-11.55-7.499-18.102z" />
<glyph unicode="&#xe760;" d="M0 665.6c0 6.552 2.499 13.102 7.499 18.101 9.997 9.998 26.206 9.998 36.203 0l442.698-442.698 442.699 442.698c9.997 9.998 26.206 9.998 36.203 0s9.998-26.206 0-36.203l-460.8-460.8c-9.997-9.998-26.206-9.998-36.203 0l-460.8 460.8c-5 5-7.499 11.55-7.499 18.102z" />
<glyph unicode="&#xe761;" d="M716.8-51.2c6.552 0 13.102 2.499 18.101 7.499 9.998 9.997 9.998 26.206 0 36.203l-442.698 442.698 442.698 442.699c9.998 9.997 9.998 26.206 0 36.203s-26.206 9.998-36.203 0l-460.8-460.8c-9.998-9.997-9.998-26.206 0-36.203l460.8-460.8c5-5 11.55-7.499 18.102-7.499z" />
<glyph unicode="&#xe762;" d="M256-51.2c-6.552 0-13.102 2.499-18.101 7.499-9.998 9.997-9.998 26.206 0 36.203l442.698 442.698-442.698 442.699c-9.998 9.997-9.998 26.206 0 36.203s26.206 9.998 36.203 0l460.8-460.8c9.998-9.997 9.998-26.206 0-36.203l-460.8-460.8c-5-5-11.55-7.499-18.102-7.499z" />
<glyph unicode="&#xe767;" d="M402.102 606.902l-314.698 314.698h194.195c14.138 0 25.6 11.462 25.6 25.6s-11.462 25.6-25.6 25.6h-256c-14.138 0-25.6-11.462-25.6-25.6v-256c0-14.138 11.462-25.6 25.6-25.6s25.6 11.462 25.6 25.6v194.195l314.698-314.698c5-4.998 11.55-7.498 18.102-7.498s13.102 2.499 18.102 7.498c9.997 9.998 9.997 26.206 0 36.205zM998.4 972.8h-256c-14.139 0-25.6-11.462-25.6-25.6s11.461-25.6 25.6-25.6h194.197l-314.696-314.698c-10-9.998-10-26.206 0-36.205 4.997-4.998 11.547-7.498 18.099-7.498s13.102 2.499 18.099 7.498l314.701 314.699v-194.197c0-14.138 11.461-25.6 25.6-25.6s25.6 11.462 25.6 25.6v256c0 14.138-11.461 25.6-25.6 25.6zM402.102 350.899c-9.998 9.997-26.206 9.997-36.205 0l-314.698-314.696v194.197c0 14.139-11.462 25.6-25.6 25.6s-25.6-11.461-25.6-25.6v-256c0-14.139 11.462-25.6 25.6-25.6h256c14.138 0 25.6 11.461 25.6 25.6s-11.462 25.6-25.6 25.6h-194.197l314.699 314.701c9.997 9.995 9.997 26.203 0 36.198zM998.4 256c-14.139 0-25.6-11.461-25.6-25.6v-194.197l-314.701 314.696c-9.995 9.997-26.206 9.997-36.203 0-9.997-9.995-9.997-26.206 0-36.203l314.701-314.696h-194.197c-14.139 0-25.6-11.461-25.6-25.6s11.461-25.6 25.6-25.6h256c14.139 0 25.6 11.461 25.6 25.6v256c0 14.139-11.461 25.6-25.6 25.6z" />
<glyph unicode="&#xe768;" d="M384 819.2c-14.138 0-25.6-11.462-25.6-25.6v-142.995l-314.698 314.698c-9.998 9.997-26.206 9.997-36.205 0-9.997-9.998-9.997-26.206 0-36.205l314.698-314.698h-142.995c-14.138 0-25.6-11.462-25.6-25.6s11.462-25.6 25.6-25.6h204.8c14.138 0 25.6 11.462 25.6 25.6v204.8c0 14.138-11.462 25.6-25.6 25.6zM1016.499 965.302c-9.997 9.997-26.206 9.997-36.203 0l-314.696-314.699v142.997c0 14.138-11.461 25.6-25.6 25.6s-25.6-11.462-25.6-25.6v-204.8c0-14.138 11.461-25.6 25.6-25.6h204.8c14.139 0 25.6 11.462 25.6 25.6s-11.461 25.6-25.6 25.6h-142.997l314.696 314.698c10 9.998 10 26.206 0 36.205zM384 358.4h-204.8c-14.138 0-25.6-11.461-25.6-25.6s11.462-25.6 25.6-25.6h142.997l-314.699-314.701c-9.997-9.995-9.997-26.206 0-36.203 5-4.997 11.55-7.496 18.102-7.496s13.102 2.499 18.102 7.501l314.698 314.696v-142.997c0-14.139 11.462-25.6 25.6-25.6s25.6 11.461 25.6 25.6v204.8c0 14.139-11.462 25.6-25.6 25.6zM1016.499-7.501l-314.696 314.701h142.997c14.139 0 25.6 11.461 25.6 25.6s-11.461 25.6-25.6 25.6h-204.8c-14.139 0-25.6-11.461-25.6-25.6v-204.8c0-14.139 11.461-25.6 25.6-25.6s25.6 11.461 25.6 25.6v142.997l314.701-314.701c4.997-4.997 11.547-7.496 18.099-7.496s13.102 2.499 18.099 7.501c10 9.995 10 26.203 0 36.198z" />
<glyph unicode="&#xe780;" d="M486.4-51.2c-129.922 0-252.067 50.594-343.936 142.464s-142.464 214.014-142.464 343.936c0 129.923 50.595 252.067 142.464 343.936s214.013 142.464 343.936 142.464c129.922 0 252.067-50.595 343.936-142.464s142.464-214.014 142.464-343.936-50.594-252.067-142.464-343.936c-91.869-91.87-214.014-142.464-343.936-142.464zM486.4 870.4c-239.97 0-435.2-195.23-435.2-435.2s195.23-435.2 435.2-435.2c239.97 0 435.2 195.23 435.2 435.2s-195.23 435.2-435.2 435.2zM332.8 153.6c-4.269 0-8.542 1.066-12.41 3.21-8.141 4.51-13.19 13.085-13.19 22.39v512c0 9.306 5.050 17.88 13.19 22.39s18.086 4.251 25.978-0.682l409.6-256c7.485-4.678 12.032-12.885 12.032-21.709s-4.547-17.032-12.032-21.709l-409.6-256c-4.142-2.592-8.853-3.891-13.568-3.891zM358.4 645.011v-419.622l335.699 209.811-335.699 209.811z" />
<glyph unicode="&#xe7bc;" d="M537.6-51.2h-51.2c-14.138 0-25.6 11.461-25.6 25.6s11.462 25.6 25.6 25.6h51.2c14.138 0 25.6-11.461 25.6-25.6s-11.462-25.6-25.6-25.6zM512 972.8c-169.39 0-307.2-137.81-307.2-307.2 0-108.246 51.898-195.986 54.106-199.667 13.629-22.715 33-62.859 42.301-87.662l40.845-108.918c6.192-16.51 18.083-31.379 32.843-42.68-10.315-13.077-16.494-29.562-16.494-47.472 0-19.654 7.43-37.602 19.618-51.2-12.187-13.598-19.618-31.546-19.618-51.2 0-42.349 34.453-76.8 76.8-76.8h153.6c42.349 0 76.8 34.451 76.8 76.8 0 19.654-7.43 37.602-19.618 51.2 12.187 13.598 19.618 31.546 19.618 51.2 0 17.91-6.179 34.397-16.498 47.474 14.76 11.302 26.648 26.171 32.835 42.686l40.818 108.914c9.294 24.8 28.664 64.936 42.299 87.645 2.211 3.683 54.146 91.432 54.146 199.682 0 169.39-137.81 307.2-307.2 307.2zM588.8 51.2h-153.6c-14.115 0-25.6 11.485-25.6 25.6s11.485 25.6 25.6 25.6h153.6c14.115 0 25.6-11.485 25.6-25.6s-11.485-25.6-25.6-25.6zM614.4 179.2c0-14.115-11.485-25.6-25.6-25.6h-153.6c-14.115 0-25.6 11.485-25.6 25.6s11.485 25.6 25.6 25.6h153.6c14.115 0 25.6-11.485 25.6-25.6zM721.158 492.274c-15.197-25.31-35.987-68.392-46.346-96.034l-40.818-108.914c-6.144-16.395-27.686-31.326-45.195-31.326h-153.6c-17.512 0-39.059 14.933-45.206 31.33l-40.845 108.918c-10.365 27.635-31.15 70.714-46.338 96.027-0.47 0.779-46.811 79.106-46.811 173.325 0 141.158 114.842 256 256 256 141.16 0 256-114.842 256-256 0-93.65-46.394-172.576-46.842-173.326z" />
<glyph unicode="&#xe955;" d="M947.2 0h-921.6c-9.094 0-17.507 4.826-22.099 12.677s-4.672 17.547-0.214 25.474l460.8 819.2c4.536 8.061 13.066 13.050 22.314 13.050s17.778-4.989 22.312-13.050l460.8-819.2c4.459-7.926 4.376-17.624-0.214-25.474-4.592-7.851-13.002-12.677-22.098-12.677zM69.371 51.2h834.056l-417.027 741.382-417.029-741.382zM486.4 256c-14.138 0-25.6 11.461-25.6 25.6v256c0 14.138 11.462 25.6 25.6 25.6s25.6-11.462 25.6-25.6v-256c0-14.139-11.462-25.6-25.6-25.6zM486.4 102.4c-14.138 0-25.6 11.461-25.6 25.6v51.2c0 14.139 11.462 25.6 25.6 25.6s25.6-11.461 25.6-25.6v-51.2c0-14.139-11.462-25.6-25.6-25.6z" />
<glyph unicode="&#xea88;" d="M559.066 896c0 0-200.956 0-267.94 0-120.12 0-233.17-91.006-233.17-196.422 0-107.726 81.882-194.666 204.088-194.666 8.498 0 16.756 0.17 24.842 0.752-7.93-15.186-13.602-32.288-13.602-50.042 0-29.938 16.104-54.21 36.468-74.024-15.386 0-30.242-0.448-46.452-0.448-148.782 0.002-263.3-94.758-263.3-193.020 0-96.778 125.542-157.314 274.334-157.314 169.624 0 263.306 96.244 263.306 193.028 0 77.6-22.896 124.072-93.686 174.134-24.216 17.144-70.53 58.836-70.53 83.344 0 28.72 8.196 42.868 51.428 76.646 44.312 34.624 75.672 83.302 75.672 139.916 0 67.406-30.020 133.098-86.372 154.772h84.954l59.96 43.344zM465.48 240.542c2.126-8.972 3.284-18.206 3.284-27.628 0-78.2-50.392-139.31-194.974-139.31-102.842 0-177.116 65.104-177.116 143.3 0 76.642 92.126 140.444 194.964 139.332 24-0.254 46.368-4.116 66.67-10.69 55.826-38.826 95.876-60.762 107.172-105.004zM300.818 532.224c-69.038 2.064-134.636 77.226-146.552 167.86-11.916 90.666 34.37 160.042 103.388 157.99 69.010-2.074 134.638-74.814 146.558-165.458 11.906-90.66-34.39-162.458-103.394-160.392zM832 704v192h-64v-192h-192v-64h192v-192h64v192h192v64z" />
<glyph unicode="&#xea8c;" d="M672 768c-88.366 0-160-71.634-160-160v-96h-128v-128h128v-448h128v448h144l32 128h-176v96c0 17.672 14.326 32 32 32h160v128h-160z" />
<glyph unicode="&#xea90;" d="M854 960h-684c-93.5 0-170-76.5-170-170v-684c0-93.5 76.5-170 170-170h684c93.5 0 170 76.5 170 170v684c0 93.5-76.5 170-170 170zM327.8 512h368.4c6.988-20.058 10.8-41.59 10.8-64 0-107.524-87.476-195-195-195s-195 87.476-195 195c0 22.41 3.812 43.942 10.8 64zM896 511.95v-383.95c0-35.2-28.8-64-64-64h-640c-35.2 0-64 28.8-64 64v384h100.108c-4.642-20.602-7.108-42.016-7.108-64 0-160.458 130.542-291 291-291s291 130.542 291 291c0 21.984-2.464 43.398-7.108 64l100.108-0.050zM896 736c0-17.6-14.4-32-32-32h-64c-17.6 0-32 14.4-32 32v64c0 17.6 14.4 32 32 32h64c17.6 0 32-14.4 32-32v-64z" />
<glyph unicode="&#xea91;" d="M1024 765.582c-37.676-16.708-78.164-28.002-120.66-33.080 43.372 26 76.686 67.17 92.372 116.23-40.596-24.078-85.556-41.56-133.41-50.98-38.32 40.83-92.922 66.34-153.346 66.34-116.022 0-210.088-94.058-210.088-210.078 0-16.466 1.858-32.5 5.44-47.878-174.6 8.764-329.402 92.4-433.018 219.506-18.084-31.028-28.446-67.116-28.446-105.618 0-72.888 37.088-137.192 93.46-174.866-34.438 1.092-66.832 10.542-95.154 26.278-0.020-0.876-0.020-1.756-0.020-2.642 0-101.788 72.418-186.696 168.522-206-17.626-4.8-36.188-7.372-55.348-7.372-13.538 0-26.698 1.32-39.528 3.772 26.736-83.46 104.32-144.206 196.252-145.896-71.9-56.35-162.486-89.934-260.916-89.934-16.958 0-33.68 0.994-50.116 2.94 92.972-59.61 203.402-94.394 322.042-94.394 386.422 0 597.736 320.124 597.736 597.744 0 9.108-0.206 18.168-0.61 27.18 41.056 29.62 76.672 66.62 104.836 108.748z" />
<glyph unicode="&#xea99;" d="M293.188 960l-69.188-137.234-69.188 137.234h-88.248l124.71-217.314 0.726 0.43v-167.116h64v167.116l0.726-0.43 124.71 217.314zM480 832c17.346 0 32-14.654 32-32v-128c0-17.346-14.654-32-32-32s-32 14.654-32 32v128c0 17.346 14.654 32 32 32zM480 896c-52.8 0-96-43.2-96-96v-128c0-52.8 43.2-96 96-96s96 43.2 96 96v128c0 52.8-43.2 96-96 96v0zM768 896v-251.968c-27.922-23.288-64-37.332-64 45.634v206.334h-64v-219.324h0.096c0.986-52.91 12.142-148.168 127.904-70.712v-29.964h64v320h-64zM864 256c-17.644 0-32-14.356-32-32v-32h64v32c0 17.644-14.356 32-32 32zM576 224v-168c21.666-21.666 64-24 64 8s0 118 0 150-32 42-64 10zM1018.766 378.46c-2.792 36.862-16.046 66.942-39.778 90.244-23.726 23.298-54.080 35.994-91.068 38.080-69.784 3.478-229.452 5.216-369.716 5.216-140.266 0-311.294-1.738-381.078-5.216-36.986-2.086-67.342-14.782-91.068-38.080-23.728-23.302-36.988-53.382-39.778-90.244-4.188-75.116-6.28-102.352-6.28-139.91 0-37.56 2.092-93.894 6.28-169.012 2.792-36.862 16.050-66.944 39.778-90.244 23.726-23.298 54.082-35.992 91.068-38.080 69.782-3.476 240.81-5.214 381.078-5.214 140.266 0 299.934 1.738 369.716 5.214 36.988 2.088 67.342 14.782 91.068 38.080 23.73 23.3 36.986 53.382 39.778 90.244 3.49 62.598 5.234 118.934 5.234 169.012 0 50.076-1.744 77.314-5.234 139.91zM192 0h-64v320h-64v64h192v-64h-64v-320zM448 0h-64v29.962c-121.666-68.294-126.918-2.198-127.904 50.712h-0.096v175.326h64v-176.334c0-38.666 36.078-34.924 64-11.634v187.968h64v-256zM704 64.914c0-66.892-68.504-86.402-128-34.39v-30.524h-64v384h64v-104c64 64 128 40 128-24s0-121.172 0-191.086zM960 192v-32h-128v-64c0-17.644 14.356-32 32-32s32 14.356 32 32v32h64v-32c0-52.934-43.066-96-96-96s-96 43.066-96 96v128c0 52.934 43.066 96 96 96s96-43.066 96-96v-32z" />
<glyph unicode="&#xeac9;" d="M384 576h177.106v-90.782h2.532c24.64 44.194 84.958 90.782 174.842 90.782 186.946 0 221.52-116.376 221.52-267.734v-308.266h-184.61v273.278c0 65.184-1.334 149.026-96.028 149.026-96.148 0-110.82-70.986-110.82-144.292v-278.012h-184.542v576zM64 576h192v-576h-192v576zM256 736c0-53.019-42.981-96-96-96s-96 42.981-96 96c0 53.019 42.981 96 96 96s96-42.981 96-96z" />
<glyph unicode="&#xead0;" d="M512.006 959.998c-282.774 0-512.006-229.23-512.006-511.996 0-216.906 134.952-402.166 325.414-476.772-4.478 40.508-8.518 102.644 1.774 146.876 9.298 39.954 60.040 254.5 60.040 254.5s-15.32 30.664-15.32 76.008c0 71.19 41.268 124.336 92.644 124.336 43.68 0 64.784-32.794 64.784-72.12 0-43.928-27.964-109.604-42.404-170.464-12.060-50.972 25.556-92.536 75.814-92.536 91.008 0 160.958 95.96 160.958 234.466 0 122.584-88.088 208.298-213.868 208.298-145.678 0-231.186-109.274-231.186-222.19 0-44.008 16.95-91.196 38.102-116.844 4.182-5.070 4.792-9.516 3.548-14.68-3.884-16.18-12.522-50.96-14.216-58.076-2.234-9.368-7.422-11.356-17.124-6.842-63.95 29.77-103.926 123.264-103.926 198.348 0 161.51 117.348 309.834 338.294 309.834 177.61 0 315.634-126.56 315.634-295.704 0-176.458-111.256-318.466-265.676-318.466-51.886 0-100.652 26.958-117.35 58.796 0 0-25.672-97.766-31.894-121.71-11.564-44.468-42.768-100.218-63.642-134.226 47.91-14.832 98.818-22.832 151.604-22.832 282.768 0.002 511.996 229.23 511.996 512 0 282.766-229.228 511.996-511.994 511.996z" />
</font>
</defs>
</svg>
